English Amiga Board


Go Back   English Amiga Board > Support > support.FS-UAE

 
 
Thread Tools
Old 13 March 2016, 12:18   #1
ARTHUR071169
Registered User
 
Join Date: Oct 2006
Location: YORK/ENGLAND
Posts: 41
latest dev build of fs-uae launcher .cue woes

I have a version of Alfred chicken from CD32 (tosec).
files are named correctly, and the cue sheet looks correct. If I manually point to it the game works a charm, but scanning using fs-uae still does not detect the game.

here is the cue sheet.
any obvious errors (as currently we still cant manually update the local database for obvious reasons - it would cause issues when re syncing to the online official lists).

CATALOG 5018247408454
FILE "Alfred Chicken (1993)(Mindscape)(Track 01 of 10)[!].iso" BINARY
TRACK 01 MODE1/2048
INDEX 01 00:00:00
FILE "Alfred Chicken (1993)(Mindscape)(Track 02 of 10)[!].wav" WAVE
TRACK 02 AUDIO
PREGAP 00:02:00
INDEX 01 00:00:00
FILE "Alfred Chicken (1993)(Mindscape)(Track 03 of 10)[!].wav" WAVE
TRACK 03 AUDIO
INDEX 01 00:00:00
FILE "Alfred Chicken (1993)(Mindscape)(Track 04 of 10)[!].wav" WAVE
TRACK 04 AUDIO
INDEX 01 00:00:00
FILE "Alfred Chicken (1993)(Mindscape)(Track 05 of 10)[!].wav" WAVE
TRACK 05 AUDIO
INDEX 01 00:00:00
FILE "Alfred Chicken (1993)(Mindscape)(Track 06 of 10)[!].wav" WAVE
TRACK 06 AUDIO
INDEX 01 00:00:00
FILE "Alfred Chicken (1993)(Mindscape)(Track 07 of 10)[!].wav" WAVE
TRACK 07 AUDIO
INDEX 01 00:00:00
FILE "Alfred Chicken (1993)(Mindscape)(Track 08 of 10)[!].wav" WAVE
TRACK 08 AUDIO
INDEX 01 00:00:00
FILE "Alfred Chicken (1993)(Mindscape)(Track 09 of 10)[!].wav" WAVE
TRACK 09 AUDIO
INDEX 01 00:00:00
FILE "Alfred Chicken (1993)(Mindscape)(Track 10 of 10)[!].wav" WAVE
TRACK 10 AUDIO
INDEX 01 00:00:00
ARTHUR071169 is offline  
Old 13 March 2016, 15:24   #2
FrodeSolheim
FS-UAE Developer
FrodeSolheim's Avatar
 
Join Date: Dec 2011
Location: Førde, Norway
Age: 40
Posts: 3,873
Hi, I've done some updates to the CD handling in FS-UAE / online game database, and specifically I've moved the .cue information into the database itself (work in progress).

Please try with an updated version: http://fs-uae.net/devel/2.7.8dev3/
FrodeSolheim is offline  
Old 22 March 2016, 09:01   #3
ARTHUR071169
Registered User
 
Join Date: Oct 2006
Location: YORK/ENGLAND
Posts: 41
thanks for the above link. Working PERFECTLY!!!! I even see the CDTV image appearing also in the arcade launcher ver under platforms (although the icons in this release for the platform, IE amiga, CDTV etc are missing once again).
I can now play all my (and I have a lot) CD32 games. Thank you so much!
Regards,
Arthur.
ARTHUR071169 is offline  
 


Currently Active Users Viewing This Thread: 1 (0 members and 1 guests)
 
Thread Tools

Similar Threads
Thread Thread Starter Forum Replies Last Post
Latest Win32 VASM Build? bodhi Coders. Asm / Hardware 89 25 August 2017 01:27
FS-UAE (non-launcher) loading config created in Launcher? Fingerlickin_B support.FS-UAE 11 24 March 2015 07:32
fs-uae-launcher and fs-uae-arcade (dev versions) linux problems [Solved] esc support.FS-UAE 2 18 November 2014 01:02
FS-UAE BIN/Cue problem [Solved] Bladeforce support.FS-UAE 2 06 March 2014 23:21
bsdsocket.library support seems to be broken in latest dev release nexusle support.FS-UAE 5 03 January 2013 18:44

Posting Rules
You may not post new threads
You may not post replies
You may not post attachments
You may not edit your posts

BB code is On
Smilies are On
[IMG] code is On
HTML code is Off

Forum Jump


All times are GMT +2. The time now is 02:19.


Powered by vBulletin® Version 3.8.11
Copyright ©2000 - 2021, vBulletin Solutions Inc.
Page generated in 0.08245 seconds with 12 queries