English Amiga Board


Go Back   English Amiga Board > Support > New to Emulation or Amiga scene

 
 
Thread Tools
Old 07 June 2007, 21:55   #1
Ineptus
 
Posts: n/a
CD32 Emulation + Theme Park - Help

A noob question from the Neptus, who'd have thought I could be as Inept as my name?

I downloaded WinUAE 1.42, and have the two required rom files for CD32 emulation. I have a disc image of Theme Park CD32, which I mounted with daemon tools - tis all appears fine. on the Misc page, I enabled uaescsi.device

Here's the problem: it just never seems to load. At one point I come to the Theme Park menu, I hit fire to select my language and it drops back to the CD32 menu. Here's what I mean in screenshots:

First screenshot (001.png) after I start WinUAE. I hit fire, I get 002.png. I hit fire again, I'm bakc with 001.png. I hit fire again, I get to 003.png, I hit fire to select English, I'm back to 001.png. Repeat.

I've tried multiple selections from the drop down to the right of uaescsi.device (such as AdaptecSCSI, etc).
Attached Thumbnails
Click image for larger version

Name:	001.png
Views:	235
Size:	34.5 KB
ID:	14024   Click image for larger version

Name:	002.png
Views:	223
Size:	7.5 KB
ID:	14025   Click image for larger version

Name:	003.png
Views:	217
Size:	18.0 KB
ID:	14026  
 
Old 07 June 2007, 22:01   #2
Toni Wilen
WinUAE developer
 
Join Date: Aug 2001
Location: Hämeenlinna/Finland
Age: 46
Posts: 25,040
Quote:
Originally Posted by Ineptus
I enabled uaescsi.device
Don't.

Quote:
I've tried multiple selections from the drop down to the right of uaescsi.device (such as AdaptecSCSI, etc).
Select SPTI if you have Windows 2000 or newer.
Toni Wilen is offline  
Old 07 June 2007, 22:07   #3
Ineptus
 
Posts: n/a
Not enabling the uaescsi.device I get a similar pattern (I'm not sure why I was enabling it to begin with, quickstart CD32 seems to do what I want as it is). Left button click during CD32 intro (screenshot one) takes me to screenshot two. right-click during CD32 intro takes me to language menu (screenshot three). Right or left-click while on language menu takes me to screenshot one.

Come to think of it, some more useful information: my virtual drive is mounted as D:. Real drive is mounted as K:. I'm guessing it's just never picking up on the disc for some reason? Is there anything I should be enabling specifically do it does pick up on the virtual drive/disc. I can post winuaebootlog.txt if it's more helpful

( I tried SPTI for uaescis.device, same thing ).

Last edited by Ineptus; 07 June 2007 at 22:13.
 
Old 07 June 2007, 22:18   #4
Retro-Nerd
Missile Command Champion

Retro-Nerd's Avatar
 
Join Date: Aug 2005
Location: Germany
Age: 49
Posts: 12,229
Only to be sure: Is this really a CD32 game? There is a Amiga CD Version too.
Retro-Nerd is offline  
Old 07 June 2007, 22:21   #5
Ineptus
 
Posts: n/a
Quote:
Originally Posted by Retro-Nerd
Only to be sure: Is this really a CD32 game? There is a Amiga CD Version too.
Near enough positive, but still a good question as I could't be 100% definitive with an answer. It came from a torrent, titled "Theme Park (1995)(Mindscape)[!][CS090088].zip". cue/iso/mp3 format.
 
Old 07 June 2007, 22:23   #6
Retro-Nerd
Missile Command Champion

Retro-Nerd's Avatar
 
Join Date: Aug 2005
Location: Germany
Age: 49
Posts: 12,229
Quote:
Originally Posted by Ineptus
Near enough positive, but still a good question as I could't be 100% definitive with an answer. It came from a torrent, titled "Theme Park (1995)(Mindscape)[!][CS090088].zip". cue/iso/mp3 format.
Mmh, have you converted the audio tracks to .wav? Daemon Tools can't mount ISO+MP3 rips.
Retro-Nerd is offline  
Old 07 June 2007, 22:25   #7
Ineptus
 
Posts: n/a
Quote:
Originally Posted by Retro-Nerd
Mmh, have you converted the audio tracks to .wav? Daemon Tools can't mount ISO+MP3 rips.
That might explain a lot! I was sure it did, but I really can't remember why (it's been a long while since I did any emu). Does any other (such as Alcohol 120%)? I'll try converting it though.
 
Old 07 June 2007, 22:33   #8
Retro-Nerd
Missile Command Champion

Retro-Nerd's Avatar
 
Join Date: Aug 2005
Location: Germany
Age: 49
Posts: 12,229
Alcohol doesn't work, try to convert the tracks and make a new .cue file.
You can use the Sega Cuemaker for it:

http://www.segakore.fr/download.php?...emaker1100.zip
Retro-Nerd is offline  
Old 07 June 2007, 23:13   #9
Ineptus
 
Posts: n/a
Everything looks pretty okay, converted, cue file is fine, etc, but still no luck
 
Old 08 June 2007, 01:10   #10
Konrad
Registered User
Konrad's Avatar
 
Join Date: Apr 2002
Location: Germany
Age: 40
Posts: 702
Quote:
Originally Posted by Ineptus
( I tried SPTI for uaescis.device, same thing ).
Just to clarify: You mean you tried SPTI instead of uaescsi.device, right ?

Selecting SPTI and mounting ISOs with Alcohol works for me.
Konrad is offline  
Old 08 June 2007, 07:50   #11
Toni Wilen
WinUAE developer
 
Join Date: Aug 2001
Location: Hämeenlinna/Finland
Age: 46
Posts: 25,040
Try audio CD. Your game image is most likely faulty if audio cd works (CD32 audio CD player starts)
Toni Wilen is offline  
Old 08 June 2007, 23:09   #12
eJ2095
 
Posts: n/a
just grab the amiga 1200 version same game to be honest
 
Old 09 June 2007, 17:11   #13
Ineptus
 
Posts: n/a
Quote:
Originally Posted by Konrad
Just to clarify: You mean you tried SPTI instead of uaescsi.device, right ?

Selecting SPTI and mounting ISOs with Alcohol works for me.
Well as I'm a bit vague on what I'm doing (other than using quickstart CD32), I had uaescsi.uae on with SPTI also selected. But I tried it with it also off and haven't had it on since Toni posted not to


Even audio CD isn't noticing the disc for me, so I'm going to leave it down to potentially an awkward system configuration of sorts as no-one else has any problems. I'll try with something other than Daemon Tools sometime soon and see how it goes though

I'd have just gone with the AGA one to begin with, but hey, I was curious
 
Old 09 June 2007, 17:20   #14
Retro-Nerd
Missile Command Champion

Retro-Nerd's Avatar
 
Join Date: Aug 2005
Location: Germany
Age: 49
Posts: 12,229
Can you post your full .cue file? The datatrack entry should be like this:

Quote:
FILE "Theme Park (1995)(Mindscape)(Track 01 of 26)[!][CS090088].iso" BINARY
TRACK 01 MODE1/2048
INDEX 01 00:00:00
Retro-Nerd is offline  
Old 09 June 2007, 22:39   #15
Ineptus
 
Posts: n/a
Pretty sure it isn't the cue file, as I can't even get CD32 emulation to play/recognize an audio CD mounted with D-Tools (must be my fault somewhere in here). I'll try it on another system someday I guess.

But the two cue files:

Code:
CATALOG 5018247845457
FILE "Theme Park (1995)(Mindscape)(Track 01 of 26)[!][CS090088].iso" BINARY
  TRACK 01 MODE1/2048
    INDEX 01 00:00:00
FILE "Theme Park (1995)(Mindscape)(Track 02 of 26)[!][CS090088].wav" WAVE
  TRACK 02 AUDIO
    PREGAP 00:02:00
    INDEX 01 00:00:00
FILE "Theme Park (1995)(Mindscape)(Track 03 of 26)[!][CS090088].wav" WAVE
  TRACK 03 AUDIO
    INDEX 00 00:00:00
    INDEX 01 00:01:72
FILE "Theme Park (1995)(Mindscape)(Track 04 of 26)[!][CS090088].wav" WAVE
  TRACK 04 AUDIO
    INDEX 00 00:00:00
    INDEX 01 00:01:72
FILE "Theme Park (1995)(Mindscape)(Track 05 of 26)[!][CS090088].wav" WAVE
  TRACK 05 AUDIO
    INDEX 00 00:00:00
    INDEX 01 00:01:73
FILE "Theme Park (1995)(Mindscape)(Track 06 of 26)[!][CS090088].wav" WAVE
  TRACK 06 AUDIO
    INDEX 00 00:00:00
    INDEX 01 00:01:73
FILE "Theme Park (1995)(Mindscape)(Track 07 of 26)[!][CS090088].wav" WAVE
  TRACK 07 AUDIO
    INDEX 00 00:00:00
    INDEX 01 00:01:73
FILE "Theme Park (1995)(Mindscape)(Track 08 of 26)[!][CS090088].wav" WAVE
  TRACK 08 AUDIO
    INDEX 00 00:00:00
    INDEX 01 00:01:73
FILE "Theme Park (1995)(Mindscape)(Track 09 of 26)[!][CS090088].wav" WAVE
  TRACK 09 AUDIO
    INDEX 00 00:00:00
    INDEX 01 00:01:73
FILE "Theme Park (1995)(Mindscape)(Track 10 of 26)[!][CS090088].wav" WAVE
  TRACK 10 AUDIO
    INDEX 00 00:00:00
    INDEX 01 00:01:73
FILE "Theme Park (1995)(Mindscape)(Track 11 of 26)[!][CS090088].wav" WAVE
  TRACK 11 AUDIO
    INDEX 00 00:00:00
    INDEX 01 00:01:73
FILE "Theme Park (1995)(Mindscape)(Track 12 of 26)[!][CS090088].wav" WAVE
  TRACK 12 AUDIO
    INDEX 00 00:00:00
    INDEX 01 00:01:73
FILE "Theme Park (1995)(Mindscape)(Track 13 of 26)[!][CS090088].wav" WAVE
  TRACK 13 AUDIO
    INDEX 00 00:00:00
    INDEX 01 00:01:73
FILE "Theme Park (1995)(Mindscape)(Track 14 of 26)[!][CS090088].wav" WAVE
  TRACK 14 AUDIO
    INDEX 00 00:00:00
    INDEX 01 00:01:73
FILE "Theme Park (1995)(Mindscape)(Track 15 of 26)[!][CS090088].wav" WAVE
  TRACK 15 AUDIO
    INDEX 00 00:00:00
    INDEX 01 00:01:73
FILE "Theme Park (1995)(Mindscape)(Track 16 of 26)[!][CS090088].wav" WAVE
  TRACK 16 AUDIO
    INDEX 00 00:00:00
    INDEX 01 00:01:73
FILE "Theme Park (1995)(Mindscape)(Track 17 of 26)[!][CS090088].wav" WAVE
  TRACK 17 AUDIO
    INDEX 00 00:00:00
    INDEX 01 00:01:73
FILE "Theme Park (1995)(Mindscape)(Track 18 of 26)[!][CS090088].wav" WAVE
  TRACK 18 AUDIO
    INDEX 00 00:00:00
    INDEX 01 00:01:73
FILE "Theme Park (1995)(Mindscape)(Track 19 of 26)[!][CS090088].wav" WAVE
  TRACK 19 AUDIO
    INDEX 00 00:00:00
    INDEX 01 00:01:73
FILE "Theme Park (1995)(Mindscape)(Track 20 of 26)[!][CS090088].wav" WAVE
  TRACK 20 AUDIO
    INDEX 00 00:00:00
    INDEX 01 00:01:73
FILE "Theme Park (1995)(Mindscape)(Track 21 of 26)[!][CS090088].wav" WAVE
  TRACK 21 AUDIO
    INDEX 00 00:00:00
    INDEX 01 00:01:73
FILE "Theme Park (1995)(Mindscape)(Track 22 of 26)[!][CS090088].wav" WAVE
  TRACK 22 AUDIO
    INDEX 00 00:00:00
    INDEX 01 00:01:73
FILE "Theme Park (1995)(Mindscape)(Track 23 of 26)[!][CS090088].wav" WAVE
  TRACK 23 AUDIO
    INDEX 00 00:00:00
    INDEX 01 00:01:73
FILE "Theme Park (1995)(Mindscape)(Track 24 of 26)[!][CS090088].wav" WAVE
  TRACK 24 AUDIO
    INDEX 00 00:00:00
    INDEX 01 00:01:72
FILE "Theme Park (1995)(Mindscape)(Track 25 of 26)[!][CS090088].wav" WAVE
  TRACK 25 AUDIO
    INDEX 00 00:00:00
    INDEX 01 00:01:72
FILE "Theme Park (1995)(Mindscape)(Track 26 of 26)[!][CS090088].wav" WAVE
  TRACK 26 AUDIO
    INDEX 00 00:00:00
    INDEX 01 00:01:72

alternative cue file


Code:
FILE "Theme Park (1995)(Mindscape)(Track 01 of 26)[!][CS090088].iso" BINARY
  TRACK 01 MODE1/2048
      INDEX 01 00:00:00
      POSTGAP 00:02:00
FILE "Theme Park (1995)(Mindscape)(Track 02 of 26)[!][CS090088].wav" WAVE
  TRACK 02 AUDIO
    PREGAP 00:02:00
    INDEX 01 00:00:00
FILE "Theme Park (1995)(Mindscape)(Track 03 of 26)[!][CS090088].wav" WAVE
  TRACK 03 AUDIO
    INDEX 01 00:00:00
FILE "Theme Park (1995)(Mindscape)(Track 04 of 26)[!][CS090088].wav" WAVE
  TRACK 04 AUDIO
    INDEX 01 00:00:00
FILE "Theme Park (1995)(Mindscape)(Track 05 of 26)[!][CS090088].wav" WAVE
  TRACK 05 AUDIO
    INDEX 01 00:00:00
FILE "Theme Park (1995)(Mindscape)(Track 06 of 26)[!][CS090088].wav" WAVE
  TRACK 06 AUDIO
    INDEX 01 00:00:00
FILE "Theme Park (1995)(Mindscape)(Track 07 of 26)[!][CS090088].wav" WAVE
  TRACK 07 AUDIO
    INDEX 01 00:00:00
FILE "Theme Park (1995)(Mindscape)(Track 08 of 26)[!][CS090088].wav" WAVE
  TRACK 08 AUDIO
    INDEX 01 00:00:00
FILE "Theme Park (1995)(Mindscape)(Track 09 of 26)[!][CS090088].wav" WAVE
  TRACK 09 AUDIO
    INDEX 01 00:00:00
FILE "Theme Park (1995)(Mindscape)(Track 10 of 26)[!][CS090088].wav" WAVE
  TRACK 10 AUDIO
    INDEX 01 00:00:00
FILE "Theme Park (1995)(Mindscape)(Track 11 of 26)[!][CS090088].wav" WAVE
  TRACK 11 AUDIO
    INDEX 01 00:00:00
FILE "Theme Park (1995)(Mindscape)(Track 12 of 26)[!][CS090088].wav" WAVE
  TRACK 12 AUDIO
    INDEX 01 00:00:00
FILE "Theme Park (1995)(Mindscape)(Track 13 of 26)[!][CS090088].wav" WAVE
  TRACK 13 AUDIO
    INDEX 01 00:00:00
FILE "Theme Park (1995)(Mindscape)(Track 14 of 26)[!][CS090088].wav" WAVE
  TRACK 14 AUDIO
    INDEX 01 00:00:00
FILE "Theme Park (1995)(Mindscape)(Track 15 of 26)[!][CS090088].wav" WAVE
  TRACK 15 AUDIO
    INDEX 01 00:00:00
FILE "Theme Park (1995)(Mindscape)(Track 16 of 26)[!][CS090088].wav" WAVE
  TRACK 16 AUDIO
    INDEX 01 00:00:00
FILE "Theme Park (1995)(Mindscape)(Track 17 of 26)[!][CS090088].wav" WAVE
  TRACK 17 AUDIO
    INDEX 01 00:00:00
FILE "Theme Park (1995)(Mindscape)(Track 18 of 26)[!][CS090088].wav" WAVE
  TRACK 18 AUDIO
    INDEX 01 00:00:00
FILE "Theme Park (1995)(Mindscape)(Track 19 of 26)[!][CS090088].wav" WAVE
  TRACK 19 AUDIO
    INDEX 01 00:00:00
FILE "Theme Park (1995)(Mindscape)(Track 20 of 26)[!][CS090088].wav" WAVE
  TRACK 20 AUDIO
    INDEX 01 00:00:00
FILE "Theme Park (1995)(Mindscape)(Track 21 of 26)[!][CS090088].wav" WAVE
  TRACK 21 AUDIO
    INDEX 01 00:00:00
FILE "Theme Park (1995)(Mindscape)(Track 22 of 26)[!][CS090088].wav" WAVE
  TRACK 22 AUDIO
    INDEX 01 00:00:00
FILE "Theme Park (1995)(Mindscape)(Track 23 of 26)[!][CS090088].wav" WAVE
  TRACK 23 AUDIO
    INDEX 01 00:00:00
FILE "Theme Park (1995)(Mindscape)(Track 24 of 26)[!][CS090088].wav" WAVE
  TRACK 24 AUDIO
    INDEX 01 00:00:00
FILE "Theme Park (1995)(Mindscape)(Track 25 of 26)[!][CS090088].wav" WAVE
  TRACK 25 AUDIO
    INDEX 01 00:00:00
FILE "Theme Park (1995)(Mindscape)(Track 26 of 26)[!][CS090088].wav" WAVE
  TRACK 26 AUDIO
    INDEX 01 00:00:00
 
Old 09 June 2007, 22:50   #16
Retro-Nerd
Missile Command Champion

Retro-Nerd's Avatar
 
Join Date: Aug 2005
Location: Germany
Age: 49
Posts: 12,229
Have you tried the latest WinUAE Beta?

http://eab.abime.net/showthread.php?t=29825
Retro-Nerd is offline  
Old 10 June 2007, 00:09   #17
Ineptus
 
Posts: n/a
Well well, works with the beta!
 
 


Currently Active Users Viewing This Thread: 1 (0 members and 1 guests)
 
Thread Tools

Similar Threads
Thread Thread Starter Forum Replies Last Post
Theme Park CD32 Issues... PowerPie5000 support.Games 6 21 September 2018 13:02
theme park and theme hospital did i imagine this title on cd32 sian request.Other 1 07 June 2013 01:43
Theme Park cd32 issue nixxjsteve support.Games 3 24 September 2011 02:23
Theme Park AGA JACK98 support.Games 2 08 December 2008 16:34
Theme Park CD32 JACK98 support.Games 0 11 October 2008 12:42

Posting Rules
You may not post new threads
You may not post replies
You may not post attachments
You may not edit your posts

BB code is On
Smilies are On
[IMG] code is On
HTML code is Off

Forum Jump


All times are GMT +2. The time now is 22:14.


Powered by vBulletin® Version 3.8.11
Copyright ©2000 - 2021, vBulletin Solutions Inc.
Page generated in 0.09452 seconds with 14 queries