View Single Post
Old 13 March 2016, 12:18   #1
ARTHUR071169
Registered User
 
Join Date: Oct 2006
Location: YORK/ENGLAND
Posts: 41
latest dev build of fs-uae launcher .cue woes

I have a version of Alfred chicken from CD32 (tosec).
files are named correctly, and the cue sheet looks correct. If I manually point to it the game works a charm, but scanning using fs-uae still does not detect the game.

here is the cue sheet.
any obvious errors (as currently we still cant manually update the local database for obvious reasons - it would cause issues when re syncing to the online official lists).

CATALOG 5018247408454
FILE "Alfred Chicken (1993)(Mindscape)(Track 01 of 10)[!].iso" BINARY
TRACK 01 MODE1/2048
INDEX 01 00:00:00
FILE "Alfred Chicken (1993)(Mindscape)(Track 02 of 10)[!].wav" WAVE
TRACK 02 AUDIO
PREGAP 00:02:00
INDEX 01 00:00:00
FILE "Alfred Chicken (1993)(Mindscape)(Track 03 of 10)[!].wav" WAVE
TRACK 03 AUDIO
INDEX 01 00:00:00
FILE "Alfred Chicken (1993)(Mindscape)(Track 04 of 10)[!].wav" WAVE
TRACK 04 AUDIO
INDEX 01 00:00:00
FILE "Alfred Chicken (1993)(Mindscape)(Track 05 of 10)[!].wav" WAVE
TRACK 05 AUDIO
INDEX 01 00:00:00
FILE "Alfred Chicken (1993)(Mindscape)(Track 06 of 10)[!].wav" WAVE
TRACK 06 AUDIO
INDEX 01 00:00:00
FILE "Alfred Chicken (1993)(Mindscape)(Track 07 of 10)[!].wav" WAVE
TRACK 07 AUDIO
INDEX 01 00:00:00
FILE "Alfred Chicken (1993)(Mindscape)(Track 08 of 10)[!].wav" WAVE
TRACK 08 AUDIO
INDEX 01 00:00:00
FILE "Alfred Chicken (1993)(Mindscape)(Track 09 of 10)[!].wav" WAVE
TRACK 09 AUDIO
INDEX 01 00:00:00
FILE "Alfred Chicken (1993)(Mindscape)(Track 10 of 10)[!].wav" WAVE
TRACK 10 AUDIO
INDEX 01 00:00:00
ARTHUR071169 is offline  
 
Page generated in 0.11407 seconds with 11 queries