English Amiga Board

English Amiga Board (http://eab.abime.net/index.php)
-   support.FS-UAE (http://eab.abime.net/forumdisplay.php?f=122)
-   -   latest dev build of fs-uae launcher .cue woes (http://eab.abime.net/showthread.php?t=81971)

ARTHUR071169 13 March 2016 12:18

latest dev build of fs-uae launcher .cue woes
 
I have a version of Alfred chicken from CD32 (tosec).
files are named correctly, and the cue sheet looks correct. If I manually point to it the game works a charm, but scanning using fs-uae still does not detect the game.

here is the cue sheet.
any obvious errors (as currently we still cant manually update the local database for obvious reasons - it would cause issues when re syncing to the online official lists).

CATALOG 5018247408454
FILE "Alfred Chicken (1993)(Mindscape)(Track 01 of 10)[!].iso" BINARY
TRACK 01 MODE1/2048
INDEX 01 00:00:00
FILE "Alfred Chicken (1993)(Mindscape)(Track 02 of 10)[!].wav" WAVE
TRACK 02 AUDIO
PREGAP 00:02:00
INDEX 01 00:00:00
FILE "Alfred Chicken (1993)(Mindscape)(Track 03 of 10)[!].wav" WAVE
TRACK 03 AUDIO
INDEX 01 00:00:00
FILE "Alfred Chicken (1993)(Mindscape)(Track 04 of 10)[!].wav" WAVE
TRACK 04 AUDIO
INDEX 01 00:00:00
FILE "Alfred Chicken (1993)(Mindscape)(Track 05 of 10)[!].wav" WAVE
TRACK 05 AUDIO
INDEX 01 00:00:00
FILE "Alfred Chicken (1993)(Mindscape)(Track 06 of 10)[!].wav" WAVE
TRACK 06 AUDIO
INDEX 01 00:00:00
FILE "Alfred Chicken (1993)(Mindscape)(Track 07 of 10)[!].wav" WAVE
TRACK 07 AUDIO
INDEX 01 00:00:00
FILE "Alfred Chicken (1993)(Mindscape)(Track 08 of 10)[!].wav" WAVE
TRACK 08 AUDIO
INDEX 01 00:00:00
FILE "Alfred Chicken (1993)(Mindscape)(Track 09 of 10)[!].wav" WAVE
TRACK 09 AUDIO
INDEX 01 00:00:00
FILE "Alfred Chicken (1993)(Mindscape)(Track 10 of 10)[!].wav" WAVE
TRACK 10 AUDIO
INDEX 01 00:00:00

FrodeSolheim 13 March 2016 15:24

Hi, I've done some updates to the CD handling in FS-UAE / online game database, and specifically I've moved the .cue information into the database itself (work in progress).

Please try with an updated version: http://fs-uae.net/devel/2.7.8dev3/

ARTHUR071169 22 March 2016 09:01

thanks for the above link. Working PERFECTLY!!!! I even see the CDTV image appearing also in the arcade launcher ver under platforms (although the icons in this release for the platform, IE amiga, CDTV etc are missing once again).
I can now play all my (and I have a lot) CD32 games. Thank you so much!
Regards,
Arthur.


All times are GMT +2. The time now is 09:00.

Powered by vBulletin® Version 3.8.11
Copyright ©2000 - 2021, vBulletin Solutions Inc.

Page generated in 0.05351 seconds with 11 queries