English Amiga Board


Go Back   English Amiga Board > Requests > request.Old Rare Games

 
 
Thread Tools
Old 13 February 2013, 01:56   #1
Akira
Registered User

Akira's Avatar
 
Join Date: May 2001
Location: New York
Posts: 19,265
Pinball Fantasies CD32 with... CD audio?

Does this even exist? I'm curious about this, the one I have doesn't have any CD audio, but it's kind of silly not to have it if you think about it (but possible, it was an early game I remember)
Akira is offline  
Old 13 February 2013, 10:54   #2
Retro-Nerd
Missile Command Champion

Retro-Nerd's Avatar
 
Join Date: Aug 2005
Location: Germany
Age: 47
Posts: 11,816
2 CDDA tracks, according to TOSEC.

Quote:
CATALOG 5012635300313
FILE "Pinball Fantasies (1993)(21st Century Entertainment)(Track 1 of 3)[!].iso" BINARY
TRACK 01 MODE1/2048
INDEX 01 00:00:00
FILE "Pinball Fantasies (1993)(21st Century Entertainment)(Track 2 of 3)[!].wav" WAVE
TRACK 02 AUDIO
PREGAP 00:02:00
INDEX 01 00:00:00
FILE "Pinball Fantasies (1993)(21st Century Entertainment)(Track 3 of 3)[!].wav" WAVE
TRACK 03 AUDIO
INDEX 00 00:00:00
INDEX 01 00:02:00
Retro-Nerd is offline  
Old 13 February 2013, 15:04   #3
AmigaFriend
Registered User
AmigaFriend's Avatar
 
Join Date: Sep 2008
Location: CLI
Posts: 1,462
Indeed it has CD Audio, but only for the intro and highscore tables. All game music is MOD format.
AmigaFriend is offline  
Old 13 February 2013, 15:53   #4
Akira
Registered User

Akira's Avatar
 
Join Date: May 2001
Location: New York
Posts: 19,265
Yeah I was wondering about the in-game soundtrack.
Did any other version have CD audio for in-game music?
Akira is offline  
Old 13 February 2013, 15:54   #5
Josh
Lord of Amiga-Manuals
Josh's Avatar
 
Join Date: Jan 2007
Location: Kassel / Germany
Age: 49
Posts: 552
Quote:
Originally Posted by Akira View Post
Does this even exist?)
Yes... If you wanna get it - grab it here:

http://aadb.amiga.me/other/Pinball%20Fantasies_CD32.rar


Cheers Josh
Josh is offline  
Old 13 February 2013, 15:54   #6
AmigaFriend
Registered User
AmigaFriend's Avatar
 
Join Date: Sep 2008
Location: CLI
Posts: 1,462
Quote:
Originally Posted by Akira View Post
Yeah I was wondering about the in-game soundtrack.
Did any other version have CD audio for in-game music?
Nope, and think about it, seeking cd tracks would be too much slow for that duck bonus you hit it or whatever
AmigaFriend is offline  
Old 13 February 2013, 19:05   #7
Akira
Registered User

Akira's Avatar
 
Join Date: May 2001
Location: New York
Posts: 19,265
Well that ain't the reason I believe, since Pinball Illusions has CDDA in-game. It doesn't work as tight as the MOD system, but it works pretty well, I think.
Akira is offline  
Old 13 February 2013, 20:38   #8
AmigaFriend
Registered User
AmigaFriend's Avatar
 
Join Date: Sep 2008
Location: CLI
Posts: 1,462
Quote:
Originally Posted by Akira View Post
Well that ain't the reason I believe, since Pinball Illusions has CDDA in-game. It doesn't work as tight as the MOD system, but it works pretty well, I think.
Ah I wasn't aware since I only played WHDLoad version. Have to give a try on the CD32 one.
AmigaFriend is offline  
 


Currently Active Users Viewing This Thread: 1 (0 members and 1 guests)
 
Thread Tools

Similar Threads
Thread Thread Starter Forum Replies Last Post
pinball fantasies on cd32 doesn't work gjb1985 Amiga scene 3 23 April 2013 23:20
Pinball Fantasies AGA/CD32 problem john4p project.WHDLoad 0 16 July 2012 13:56
Pinball Dreams & Pinball Fantasies - Special Edition (OCS/ECS) teh HOL contributions 3 23 March 2012 15:39
Pinball Fantasies CD32 Benefactor DrunkGuy request.Old Rare Games 4 28 November 2006 12:31
Pinball Fantasies CD32 - Tables killergorilla HOL contributions 2 13 April 2005 03:00

Posting Rules
You may not post new threads
You may not post replies
You may not post attachments
You may not edit your posts

BB code is On
Smilies are On
[IMG] code is On
HTML code is Off

Forum Jump


All times are GMT +2. The time now is 07:38.


Powered by vBulletin® Version 3.8.11
Copyright ©2000 - 2019, vBulletin Solutions Inc.
Page generated in 0.06812 seconds with 15 queries