English Amiga Board


Go Back   English Amiga Board > Support > support.WinUAE

 
 
Thread Tools
Old 31 July 2010, 12:22   #1
wizzel
 
Posts: n/a
Exclamation CD32 cue+bin+mp3 - No Audio?!

Hi there,
since WinUAE supports CD images with wav/mp3 as audio,
i recently tried to make my CD32 images run with mp3s under WinUAE.
I have a mp3 codec installed but i can get no mp3-audio output with WinUAE (2.3.0 beta 8).
However with their wav counterpart everything works fine, but i can't find the reason for not having audio with my mp3 versions.

Here's an example of a .cue file i use:

FILE "Banshee (1994)(Core Design)(M4)(Track 01 of 03)[!][CDD4103].iso" BINARY
TRACK 01 MODE1/2048
INDEX 01 00:00:00
FILE "Banshee (1994)(Core Design)(M4)(Track 02 of 03)[!][CDD4103].mp3" MP3
TRACK 02 AUDIO
PREGAP 00:02:00
INDEX 01 00:00:00
FILE "Banshee (1994)(Core Design)(M4)(Track 02 of 03)[!][CDD4103].mp3" MP3
TRACK 03 AUDIO
INDEX 01 00:00:00

I have burned this successfully with Nero.

Are there any restrictions in WinUAE or a track naming convention
that keeps the mp3s from playing?
Anyone any idea(s)

Thanks in advance,
wizzel
 
Old 31 July 2010, 12:44   #2
Toni Wilen
WinUAE developer
 
Join Date: Aug 2001
Location: Hämeenlinna/Finland
Age: 43
Posts: 22,111
Attach winuaelog.txt. (I think prb.Other is wrong forum)
Toni Wilen is offline  
Old 02 August 2010, 12:21   #3
wizzel
 
Posts: n/a
Here's the log, Tony.
Looked into it and found "Illegal Sector Number 1923"
and "IMAGE CDDA: thread killed".
But why

Last edited by wizzel; 02 August 2010 at 13:50.
 
Old 02 August 2010, 12:56   #4
Toni Wilen
WinUAE developer
 
Join Date: Aug 2001
Location: Hämeenlinna/Finland
Age: 43
Posts: 22,111
Probably something to do with mp3 files because unpacked length is detected as 0 bytes. Attach or email one mp3 file, thanks.

btw, last track probably should be "Track 03 of 03.mp3", not "Track 02 of 03.mp3"
Toni Wilen is offline  
Old 02 August 2010, 13:55   #5
wizzel
 
Posts: n/a
Yes, Track 03... that was a typo in the .cue file, thanks for the hint !

Tried to attach Track 02 or Track 03, but i don't have the privileges, yet.
I can only upload 1MB as an attachment (a Track is 3 MB) and i can't get access to "The Zone!", as of yet.

Sorry!
 
Old 02 August 2010, 14:02   #6
TCD
Registered User

TCD's Avatar
 
Join Date: Sep 2006
Location: Germany
Age: 40
Posts: 24,012
Quote:
Originally Posted by wizzel View Post
and i can't get access to "The Zone!", as of yet.
http://eab.abime.net/faq.php?faq=vb_...ezone_faq_item
TCD is offline  
Old 02 August 2010, 19:37   #7
wizzel
 
Posts: n/a
Ah, thanks TheCyberDruid! The Zone at last!

Ok, Toni. I uploaded a file called "Banshee (1994)(Core Design)(M4)(Track 02 of 03)[!][CDD4103].mp3" to the Zone.

Maybe you can find out why mp3s (in general) are not played in combination with .cue+.bin.

Thanks for looking into this.
 
Old 02 August 2010, 20:15   #8
Toni Wilen
WinUAE developer
 
Join Date: Aug 2001
Location: Hämeenlinna/Finland
Age: 43
Posts: 22,111
Thanks, will be fixed in next beta. Size detection didn't work with (rare) MP3s that include frame checksums.
Toni Wilen is offline  
Old 02 August 2010, 21:46   #9
wizzel
 
Posts: n/a
Thanks Toni
 
Old 04 August 2010, 00:58   #10
wizzel
 
Posts: n/a
Thumbs up

Thanks again for fixing the mp3 playback, Toni.
Problem solved in b9. Thread can be closed.
 
 


Currently Active Users Viewing This Thread: 1 (0 members and 1 guests)
 
Thread Tools

Similar Threads
Thread Thread Starter Forum Replies Last Post
Playing CD-Audio tracks on Amiga from a BIN/CUE image Bamiga2002 support.Other 7 23 March 2013 02:45
FTPs that offer BIN/CUE CD³² images? MethodGit request.Old Rare Games 13 16 January 2005 20:11
CD32 cue / bins with MP3 tracks - how do I mount them? zardoz support.Apps 5 07 January 2005 20:31
Burning CD32 files + (mp3) audio kriz Retrogaming General Discussion 5 25 November 2003 14:49
MP3 audio tracks with CD32 ISO rips? MheAd support.WinUAE 16 02 July 2003 18:48

Posting Rules
You may not post new threads
You may not post replies
You may not post attachments
You may not edit your posts

BB code is On
Smilies are On
[IMG] code is On
HTML code is Off

Forum Jump


All times are GMT +2. The time now is 09:45.


Powered by vBulletin® Version 3.8.11
Copyright ©2000 - 2018, vBulletin Solutions Inc.
Page generated in 0.06810 seconds with 13 queries