English Amiga Board


Go Back   English Amiga Board > Other Projects > project.EAB File Server

 
 
Thread Tools
Old 06 October 2016, 17:50   #1
SuperPlay
Registered User

SuperPlay's Avatar
 
Join Date: Sep 2013
Location: Staffordshire / UK
Posts: 74
Future Wars Time Travellers Audio CD

Hi Folks

While having a sort out I have come across and original copy of the following Audio CD:

Les Voyageurs du Temps (Future Wars - Time Travellers)

http://vgmdb.net/album/5524

Is anyone is interested in this? If so (and if this is allowed on the EAB File Server) I could rip using EAC/Flac etc and upload.
SuperPlay is offline  
AdSense AdSense  
Old 06 October 2016, 17:57   #2
Akira
Registered User

Akira's Avatar
 
Join Date: May 2001
Location: New York
Posts: 18,196
Yes please!
Akira is offline  
Old 06 October 2016, 18:29   #3
Belgarath
HOL Team Member

Belgarath's Avatar
 
Join Date: Dec 2001
Location: Manchester
Posts: 2,392
I've just compared the tracks with the PC CD Rom version, looks like it's the same as the last 11 audio tracks on that.
Belgarath is offline  
Old 06 October 2016, 19:17   #4
SuperPlay
Registered User

SuperPlay's Avatar
 
Join Date: Sep 2013
Location: Staffordshire / UK
Posts: 74
I have uploaded to:

/~Uploads/SuperPlay/future_wars_audio_cd

Ripped and compressed using EAC / FLAC
Covers in TIFF format

TOC of the extracted CD

Track | Start | Length | Start sector | End sector
---------------------------------------------------------
1 | 0:00.32 | 2:41.35 | 32 | 12141
2 | 2:41.67 | 2:07.08 | 12142 | 21674
3 | 4:49.00 | 2:06.62 | 21675 | 31186
4 | 6:55.62 | 2:01.73 | 31187 | 40334
5 | 8:57.60 | 3:00.62 | 40335 | 53896
6 | 11:58.47 | 2:49.05 | 53897 | 66576
7 | 14:47.52 | 2:36.45 | 66577 | 78321
8 | 17:24.22 | 2:00.60 | 78322 | 87381
9 | 19:25.07 | 2:38.03 | 87382 | 99234
10 | 22:03.10 | 0:42.52 | 99235 | 102436
11 | 22:45.62 | 2:17.18 | 102437 | 112729



Belgarath: Thanks for the info, interesting find there :-)
SuperPlay is offline  
Old 06 October 2016, 21:33   #5
Akira
Registered User

Akira's Avatar
 
Join Date: May 2001
Location: New York
Posts: 18,196
THank you very much SuperPlay, really appreciate this upload.
Akira is offline  
Old 06 October 2016, 22:05   #6
NeoHippie2016
ShantiOm

NeoHippie2016's Avatar
 
Join Date: Dec 2015
Location: Gladbeck
Posts: 218
Yes, Thank you! I love this game... Ehm, what about Future Wars CDTV, that never released!? ;-)
NeoHippie2016 is online now  
AdSense AdSense  
 


Currently Active Users Viewing This Thread: 1 (0 members and 1 guests)
 
Thread Tools

Similar Threads
Thread Thread Starter Forum Replies Last Post
Future Wars: Time Traveller skateblind support.Games 32 18 July 2009 11:42
Future Wars in Spanish frikilokooo request.Old Rare Games 3 20 March 2007 15:49
Future Wars barkingboy project.SPS (was CAPS) 1 07 April 2004 18:40
Future Wars: Adventures in Time stainy request.Old Rare Games 3 22 January 2002 21:52
Future Wars sgt_chimp support.Games 4 30 November 2001 08:48

Posting Rules
You may not post new threads
You may not post replies
You may not post attachments
You may not edit your posts

BB code is On
Smilies are On
[IMG] code is On
HTML code is Off

Forum Jump


All times are GMT +2. The time now is 06:13.


Powered by vBulletin® Version 3.8.8 Beta 1
Copyright ©2000 - 2017, vBulletin Solutions, Inc.
Page generated in 0.20011 seconds with 14 queries