English Amiga Board


Go Back   English Amiga Board > Support > support.FS-UAE

 
 
Thread Tools
Old 06 March 2014, 21:42   #1
Bladeforce
Registered User
 
Join Date: Mar 2012
Location: UK
Posts: 60
FS-UAE BIN/Cue problem [Solved]

Hi, I am trying to mount the game Quake in workbench 3.1 with a bin/cue extension. The game accepts the cue file in the config but when mounting it in fs-uae i get the following icon (Big Red arrow point at it in the picture) and you cant open it.

Here is the contents of the cue file:

FILE "Quake.bin" BINARY
TRACK 01 AUDIO
INDEX 01 06:09:13
TRACK 02 MODE2/2352
INDEX 01 06:07:28
TRACK 03 AUDIO
INDEX 01 11:19:60
TRACK 04 AUDIO
INDEX 01 13:47:63
TRACK 05 AUDIO
INDEX 01 22:10:09
TRACK 06 AUDIO
INDEX 01 28:17:40
TRACK 07 AUDIO
INDEX 01 35:44:11
TRACK 08 AUDIO
INDEX 01 44:24:30
TRACK 09 AUDIO
INDEX 01 50:02:26
TRACK 10 AUDIO
INDEX 01 56:33:22
TRACK 11 AUDIO
INDEX 01 60:07:66


I thought FS-UAE supported bin/cue files?
Any help appreciated
Attached Thumbnails
Click image for larger version

Name:	fs-uae-full-1403062036-01.png
Views:	87
Size:	145.5 KB
ID:	39296  
Bladeforce is offline  
Old 06 March 2014, 21:52   #2
Retro-Nerd
Missile Command Champion

Retro-Nerd's Avatar
 
Join Date: Aug 2005
Location: Germany
Age: 46
Posts: 11,159
Swap Track 1 and 2 entries in the .cue file. Track 1 should be the data track. And maybe, if it still doesn't work, the data mode to

TRACK 01 MODE1/2352

Last edited by Retro-Nerd; 06 March 2014 at 22:21.
Retro-Nerd is offline  
Old 06 March 2014, 23:21   #3
Bladeforce
Registered User
 
Join Date: Mar 2012
Location: UK
Posts: 60
Thanks i didnt notice the cue file was set up wrong, it has installed fine and after using the qlauncher update it works fine
Bladeforce is offline  
 


Currently Active Users Viewing This Thread: 1 (0 members and 1 guests)
 
Thread Tools

Similar Threads
Thread Thread Starter Forum Replies Last Post
cue image problem MrX_Cuci support.WinUAE 5 20 July 2013 16:17
Playing CD-Audio tracks on Amiga from a BIN/CUE image Bamiga2002 support.Other 7 23 March 2013 01:45
FS-UAE: NTSC still not quite right [Solved] mr_a500 support.FS-UAE 22 21 January 2013 21:09
CD32 cue+bin+mp3 - No Audio?! wizzel support.WinUAE 9 03 August 2010 23:58
FTPs that offer BIN/CUE CD³² images? MethodGit request.Old Rare Games 13 16 January 2005 19:11

Posting Rules
You may not post new threads
You may not post replies
You may not post attachments
You may not edit your posts

BB code is On
Smilies are On
[IMG] code is On
HTML code is Off

Forum Jump


All times are GMT +2. The time now is 12:33.


Powered by vBulletin® Version 3.8.11
Copyright ©2000 - 2018, vBulletin Solutions Inc.
Page generated in 0.05826 seconds with 14 queries