View Single Post
Old 13 February 2013, 10:54   #2
Retro-Nerd
Missile Command Champion

Retro-Nerd's Avatar
 
Join Date: Aug 2005
Location: Germany
Age: 48
Posts: 11,875
2 CDDA tracks, according to TOSEC.

Quote:
CATALOG 5012635300313
FILE "Pinball Fantasies (1993)(21st Century Entertainment)(Track 1 of 3)[!].iso" BINARY
TRACK 01 MODE1/2048
INDEX 01 00:00:00
FILE "Pinball Fantasies (1993)(21st Century Entertainment)(Track 2 of 3)[!].wav" WAVE
TRACK 02 AUDIO
PREGAP 00:02:00
INDEX 01 00:00:00
FILE "Pinball Fantasies (1993)(21st Century Entertainment)(Track 3 of 3)[!].wav" WAVE
TRACK 03 AUDIO
INDEX 00 00:00:00
INDEX 01 00:02:00
Retro-Nerd is offline  
 
Page generated in 0.04267 seconds with 11 queries