View Single Post
Old 06 May 2017, 19:45   #20
DamienD
Global Moderator

DamienD's Avatar
 
Join Date: Aug 2005
Location: London / Sydney
Age: 40
Posts: 8,979
Quote:
Originally Posted by Toni Wilen View Post
Could you include your T-zero .cue file, perhaps there is something interesting?..
Sure, contents of "T-zer0 AmigaCD.cue"

Code:
 FILE "T-zer0 AmigaCD.bin" BINARY
  TRACK 01 MODE1/2352
    INDEX 01 00:00:00
  TRACK 02 AUDIO
    PREGAP 00:02:00
    INDEX 01 30:23:38
  TRACK 03 AUDIO
    INDEX 01 34:06:32
  TRACK 04 AUDIO
    INDEX 01 37:58:20
  TRACK 05 AUDIO
    INDEX 01 41:16:70
  TRACK 06 AUDIO
    INDEX 01 44:51:71
  TRACK 07 AUDIO
    INDEX 01 47:42:28
  TRACK 08 AUDIO
    INDEX 01 50:02:52
  TRACK 09 AUDIO
    INDEX 01 53:10:30
  TRACK 10 AUDIO
    INDEX 01 55:49:60
  TRACK 11 AUDIO
    INDEX 01 58:52:07
  TRACK 12 AUDIO
    INDEX 01 61:54:10
  TRACK 13 AUDIO
    INDEX 01 64:38:60
  TRACK 14 AUDIO
    INDEX 01 66:57:14
DamienD is online now  
 
Page generated in 0.04881 seconds with 9 queries