View Single Post
Old 17 December 2016, 16:45   #4
AMIGASYSTEM
Registered User
AMIGASYSTEM's Avatar
 
Join Date: Aug 2014
Location: Brindisi (Italia)
Posts: 1,953
In fact one of the mp3 Goldrunner series "gibs_-_Goldrunner_-_From_Past_To_Present.mp3" apparently not work on Player AMiGA, on Windows works fine

These are the characteristics of the 6 files mp3:

Code:
General
Complete name                            : Goldrunner_-_daXX_Orchestra_Surprise_RMX.mp3
Format                                   : MPEG Audio
File size                                : 7.30 MiB
Duration                                 : 4mn 33s
Overall bit rate mode                    : Constant
Overall bit rate                         : 224 Kbps
Album                                    : http://AmigaRemix.com/
Track name                               : Gold Runner (daXX Orchestra Surprice RMX)
Performer                                : daXX
Genre                                    : AmigaRemix
Recorded date                            : 2012

Audio
Format                                   : MPEG Audio
Format version                           : Version 1
Format profile                           : Layer 3
Mode                                     : Joint stereo
Duration                                 : 4mn 33s
Bit rate mode                            : Constant
Bit rate                                 : 224 Kbps
Channel(s)                               : 2 channels
Sampling rate                            : 44.1 KHz
Compression mode                         : Lossy
Stream size                              : 7.30 MiB (100%)

General
Complete name                            gibs_-_Goldrunner_-_From_Past_To_Present.mp3
Format                                   : MPEG Audio
File size                                : 10.6 MiB
Duration                                 : 4mn 27s
Overall bit rate mode                    : Constant
Overall bit rate                         : 320 Kbps
Album                                    : http://AmigaRemix.com/
Track name                               : Goldrunner - From Past To Present
Performer                                : Michael GIBS
Composer                                 : Rob Hubbard
Remixed by                               : Michael GIBS
Genre                                    : AmigaRemix
Recorded date                            : 2011-06-02 18:29
Writing library                          : Logic Pro 9.1.3
BPM                                      : 100
Comment                                  : http://ohmygibs.free.fr
Initial key                              : C

Audio
Format                                   : MPEG Audio
Format version                           : Version 1
Format profile                           : Layer 3
Mode                                     : Joint stereo
Mode extension                           : MS Stereo
Duration                                 : 4mn 27s
Bit rate mode                            : Constant
Bit rate                                 : 320 Kbps
Channel(s)                               : 2 channels
Sampling rate                            : 44.1 KHz
Compression mode                         : Lossy
Stream size                              : 10.2 MiB (96%)

General
Complete name                            : Magnus_-_Magnus_-_GoldrunnerMain_Remix.mp3
Format                                   : MPEG Audio
File size                                : 2.96 MiB
Duration                                 : 3mn 13s
Overall bit rate mode                    : Constant
Overall bit rate                         : 128 Kbps
Album                                    : http://AmigaRemix.com/
Track name                               : Goldrunner (Main Remix)
Performer                                : Magnus
Original/Performer                       : Rob Hubbard
Composer                                 : Rob Hubbard
Genre                                    : AmigaRemix
Recorded date                            : 2006
URL                                      : http://AmigaRemix.com/

Audio
Format                                   : MPEG Audio
Format version                           : Version 1
Format profile                           : Layer 3
Mode                                     : Joint stereo
Mode extension                           : MS Stereo
Duration                                 : 3mn 14s
Bit rate mode                            : Constant
Bit rate                                 : 128 Kbps
Channel(s)                               : 2 channels
Sampling rate                            : 44.1 KHz
Compression mode                         : Lossy
Stream size                              : 2.96 MiB (100%)

General
Complete name                            : Scyphe_-_Goldrunner_Maccie_Pimp_Me_Up_Remix.mp3
Format                                   : MPEG Audio
File size                                : 5.56 MiB
Duration                                 : 4mn 3s
Overall bit rate mode                    : Constant
Overall bit rate                         : 192 Kbps
Album                                    : http://AmigaRemix.com/
Album/Performer                          : Scyphe
Track name                               : Goldrunner (Maccie Pimp-Me-Up-Mix)
Performer                                : Scyphe
Composer                                 : Rob Hubbard
Genre                                    : AmigaRemix
Recorded date                            : 2013

Audio
Format                                   : MPEG Audio
Format version                           : Version 1
Format profile                           : Layer 3
Mode                                     : Joint stereo
Duration                                 : 4mn 3s
Bit rate mode                            : Constant
Bit rate                                 : 192 Kbps
Channel(s)                               : 2 channels
Sampling rate                            : 44.1 KHz
Compression mode                         : Lossy
Stream size                              : 5.56 MiB (100%)

General
Complete name                            : Shock_-_Goldrunner_2_Remix.mp3
Format                                   : MPEG Audio
File size                                : 7.42 MiB
Duration                                 : 4mn 3s
Overall bit rate mode                    : Constant
Overall bit rate                         : 256 Kbps
Album                                    : http://AmigaRemix.com/
Track name                               : Goldrunner 2 Theme
Performer                                : Shock
Genre                                    : AmigaRemix
Recorded date                            : 2008
URL                                      : http://AmigaRemix.com/

Audio
Format                                   : MPEG Audio
Format version                           : Version 1
Format profile                           : Layer 3
Mode                                     : Joint stereo
Duration                                 : 4mn 3s
Bit rate mode                            : Constant
Bit rate                                 : 256 Kbps
Channel(s)                               : 2 channels
Sampling rate                            : 44.1 KHz
Compression mode                         : Lossy
Stream size                              : 7.42 MiB (100%)

General
Complete name                            : tEiS_-_GoldRunner_7_Wuermji_House_Remix.mp3
Format                                   : MPEG Audio
File size                                : 5.50 MiB
Duration                                 : 3mn 42s
Overall bit rate mode                    : Variable
Overall bit rate                         : 207 Kbps
Album                                    : http://AmigaRemix.com/
Track name                               : GoldRunner (7'' Wuermji House Remix)
Performer                                : tEiS
Original/Performer                       : Rob Hubbard
Encoded by                               : tEiS
Genre                                    : AmigaRemix
Recorded date                            : 2007
Writing library                          : LAME3.97 
Comment                                  : RaveBusters RemixDisc Vol.2
URL                                      : http://AmigaRemix.com/

Audio
Format                                   : MPEG Audio
Format version                           : Version 1
Format profile                           : Layer 3
Mode                                     : Joint stereo
Duration                                 : 3mn 42s
Bit rate mode                            : Variable
Bit rate                                 : 207 Kbps
Minimum bit rate                         : 32.0 Kbps
Channel(s)                               : 2 channels
Sampling rate                            : 44.1 KHz
Compression mode                         : Lossy
Stream size                              : 5.50 MiB (100%)
Writing library                          : LAME3.97 
Encoding settings                        : -m j -V 2 -q 2 -
AMIGASYSTEM is offline  
 
Page generated in 0.06880 seconds with 9 queries