English Amiga Board

English Amiga Board (http://eab.abime.net/index.php)
-   request.Old Rare Games (http://eab.abime.net/forumdisplay.php?f=10)
-   -   Pinball Fantasies CD32 with... CD audio? (http://eab.abime.net/showthread.php?t=67859)

Akira 13 February 2013 01:56

Pinball Fantasies CD32 with... CD audio?
 
Does this even exist? I'm curious about this, the one I have doesn't have any CD audio, but it's kind of silly not to have it if you think about it (but possible, it was an early game I remember)

Retro-Nerd 13 February 2013 10:54

2 CDDA tracks, according to TOSEC.

Quote:

CATALOG 5012635300313
FILE "Pinball Fantasies (1993)(21st Century Entertainment)(Track 1 of 3)[!].iso" BINARY
TRACK 01 MODE1/2048
INDEX 01 00:00:00
FILE "Pinball Fantasies (1993)(21st Century Entertainment)(Track 2 of 3)[!].wav" WAVE
TRACK 02 AUDIO
PREGAP 00:02:00
INDEX 01 00:00:00
FILE "Pinball Fantasies (1993)(21st Century Entertainment)(Track 3 of 3)[!].wav" WAVE
TRACK 03 AUDIO
INDEX 00 00:00:00
INDEX 01 00:02:00

AmigaFriend 13 February 2013 15:04

Indeed it has CD Audio, but only for the intro and highscore tables. All game music is MOD format.

Akira 13 February 2013 15:53

Yeah I was wondering about the in-game soundtrack.
Did any other version have CD audio for in-game music?

Josh 13 February 2013 15:54

Quote:

Originally Posted by Akira (Post 868043)
Does this even exist?)

Yes... If you wanna get it - grab it here:

http://aadb.amiga.me/other/Pinball%20Fantasies_CD32.rar


Cheers Josh

AmigaFriend 13 February 2013 15:54

Quote:

Originally Posted by Akira (Post 868121)
Yeah I was wondering about the in-game soundtrack.
Did any other version have CD audio for in-game music?

Nope, and think about it, seeking cd tracks would be too much slow for that duck bonus you hit it or whatever ;)

Akira 13 February 2013 19:05

Well that ain't the reason I believe, since Pinball Illusions has CDDA in-game. It doesn't work as tight as the MOD system, but it works pretty well, I think.

AmigaFriend 13 February 2013 20:38

Quote:

Originally Posted by Akira (Post 868156)
Well that ain't the reason I believe, since Pinball Illusions has CDDA in-game. It doesn't work as tight as the MOD system, but it works pretty well, I think.

Ah I wasn't aware since I only played WHDLoad version. Have to give a try on the CD32 one.


All times are GMT +2. The time now is 00:18.

Powered by vBulletin® Version 3.8.11
Copyright ©2000 - 2020, vBulletin Solutions Inc.

Page generated in 0.05513 seconds with 11 queries